osu file format v14

[General]
AudioFilename: 04 - Connect -TV MIX-.mp3
AudioLeadIn: 1500
PreviewTime: 66416
Countdown: 0
SampleSet: Normal
StackLeniency: 0.7
Mode: 1
LetterboxInBreaks: 0
WidescreenStoryboard: 0

[Editor]
DistanceSpacing: 0.8
BeatDivisor: 4
GridSize: 8
TimelineZoom: 2.1

[Metadata]
Title:Connect -TV MIX-
TitleUnicode:コネクト -TV MIX-
Artist:ClariS
ArtistUnicode:ClariS
Creator:captin1
Version:Kanto's Oni
Source:魔法少女まどか☆マギカ
Tags:Mahou Shoujo Madoka Magika Puella Magi no_gu mmzz karia xinely spectator momochikun kantokun rumia- alice clara
BeatmapID:504418
BeatmapSetID:203567

[Difficulty]
HPDrainRate:5
CircleSize:4
OverallDifficulty:6
ApproachRate:5
SliderMultiplier:1.4
SliderTickRate:1

[Events]
//Background and Video events
0,0,"taiko.jpg",0,100
//Break Periods
//Storyboard Layer 0 (Background)
//Storyboard Layer 1 (Fail)
//Storyboard Layer 2 (Pass)
//Storyboard Layer 3 (Foreground)
//Storyboard Sound Samples

[TimingPoints]
1359,342.857142857143,4,1,0,60,1,0
67187,-100,4,1,0,70,0,1
80044,-100,4,1,0,70,0,0
80730,-100,4,1,0,70,0,1
89130,-100,4,1,0,70,0,0

[Colours]
Combo1 : 79,0,157
Combo2 : 255,128,255
Combo3 : 0,98,196
Combo4 : 242,24,57
Combo5 : 255,192,0

[HitObjects]
256,192,1359,5,0,0:0:0:0:
256,192,1530,1,8,0:0:0:0:
256,192,1701,1,8,0:0:0:0:
256,192,1873,1,0,0:0:0:0:
256,192,2044,1,8,0:0:0:0:
256,192,2216,1,8,0:0:0:0:
256,192,2730,1,8,0:0:0:0:
256,192,2901,1,0,0:0:0:0:
256,192,3073,1,0,0:0:0:0:
256,192,3244,1,8,0:0:0:0:
256,192,3587,1,8,0:0:0:0:
256,192,3930,1,8,0:0:0:0:
256,192,4101,1,0,0:0:0:0:
256,192,4273,1,0,0:0:0:0:
256,192,4444,1,8,0:0:0:0:
256,192,4616,1,0,0:0:0:0:
256,192,4787,1,0,0:0:0:0:
256,192,4959,1,8,0:0:0:0:
256,192,5301,1,0,0:0:0:0:
256,192,5472,1,0,0:0:0:0:
256,192,5644,1,8,0:0:0:0:
256,192,5815,1,0,0:0:0:0:
256,192,5987,1,8,0:0:0:0:
256,192,6330,1,0,0:0:0:0:
256,192,6501,1,8,0:0:0:0:
256,192,6673,1,0,0:0:0:0:
256,192,6844,1,0,0:0:0:0:
256,192,7016,1,8,0:0:0:0:
256,192,7187,1,8,0:0:0:0:
256,192,7359,1,0,0:0:0:0:
256,192,7530,1,8,0:0:0:0:
256,192,7701,1,8,0:0:0:0:
256,192,8044,1,0,0:0:0:0:
256,192,8216,1,8,0:0:0:0:
256,192,8387,1,0,0:0:0:0:
256,192,8559,1,0,0:0:0:0:
256,192,8730,1,8,0:0:0:0:
256,192,9073,1,8,0:0:0:0:
256,192,9244,1,0,0:0:0:0:
256,192,9416,1,8,0:0:0:0:
256,192,9587,12,0,11644,0:0:0:0:
256,192,11987,5,8,0:0:0:0:
256,192,12073,1,8,0:0:0:0:
256,192,12159,1,8,0:0:0:0:
256,192,12244,1,8,0:0:0:0:
256,192,12330,1,0,0:0:0:0:
256,192,12673,1,8,0:0:0:0:
256,192,13016,1,0,0:0:0:0:
256,192,13187,1,0,0:0:0:0:
256,192,13359,1,8,0:0:0:0:
256,192,13530,1,4,0:0:0:0:
256,192,13873,1,0,0:0:0:0:
256,192,14044,1,8,0:0:0:0:
256,192,14216,1,0,0:0:0:0:
256,192,14301,1,0,0:0:0:0:
256,192,14387,1,0,0:0:0:0:
256,192,14559,1,0,0:0:0:0:
256,192,14730,1,8,0:0:0:0:
256,192,14901,1,8,0:0:0:0:
256,192,15073,1,4,0:0:0:0:
256,192,15416,1,8,0:0:0:0:
256,192,15587,1,0,0:0:0:0:
256,192,15673,1,0,0:0:0:0:
256,192,15759,1,0,0:0:0:0:
256,192,15930,1,0,0:0:0:0:
256,192,16101,1,8,0:0:0:0:
256,192,16273,1,4,0:0:0:0:
256,192,16616,1,0,0:0:0:0:
256,192,16787,1,8,0:0:0:0:
256,192,16959,1,0,0:0:0:0:
256,192,17044,1,0,0:0:0:0:
256,192,17130,1,8,0:0:0:0:
256,192,17301,1,0,0:0:0:0:
256,192,17473,1,8,0:0:0:0:
256,192,17559,1,8,0:0:0:0:
256,192,17644,1,8,0:0:0:0:
256,192,17730,1,8,0:0:0:0:
256,192,17816,1,0,0:0:0:0:
256,192,17987,1,0,0:0:0:0:
256,192,18159,1,8,0:0:0:0:
256,192,18330,1,0,0:0:0:0:
256,192,18416,1,8,0:0:0:0:
256,192,18501,1,0,0:0:0:0:
256,192,18673,1,0,0:0:0:0:
256,192,18844,1,8,0:0:0:0:
256,192,19016,1,4,0:0:0:0:
256,192,19359,1,0,0:0:0:0:
256,192,19530,1,8,0:0:0:0:
256,192,19701,1,8,0:0:0:0:
256,192,19873,1,0,0:0:0:0:
256,192,20044,1,0,0:0:0:0:
256,192,20216,1,8,0:0:0:0:
256,192,20559,1,4,0:0:0:0:
256,192,20901,1,0,0:0:0:0:
256,192,21073,1,0,0:0:0:0:
256,192,21244,1,0,0:0:0:0:
256,192,21415,1,0,0:0:0:0:
256,192,21586,1,0,0:0:0:0:
256,192,21758,1,0,0:0:0:0:
256,192,21930,1,12,0:0:0:0:
256,192,22444,1,8,0:0:0:0:
256,192,22530,1,8,0:0:0:0:
256,192,22616,1,0,0:0:0:0:
256,192,22787,1,0,0:0:0:0:
256,192,22959,1,0,0:0:0:0:
256,192,23130,1,0,0:0:0:0:
256,192,23301,1,12,0:0:0:0:
256,192,23644,1,8,0:0:0:0:
256,192,23987,1,0,0:0:0:0:
256,192,24159,1,0,0:0:0:0:
256,192,24330,1,8,0:0:0:0:
256,192,24501,1,8,0:0:0:0:
256,192,24673,1,0,0:0:0:0:
256,192,25016,1,8,0:0:0:0:
256,192,25359,1,0,0:0:0:0:
256,192,25530,1,8,0:0:0:0:
256,192,25873,1,8,0:0:0:0:
256,192,26044,1,0,0:0:0:0:
256,192,26387,1,8,0:0:0:0:
256,192,26730,1,0,0:0:0:0:
256,192,26901,1,0,0:0:0:0:
256,192,27073,1,8,0:0:0:0:
256,192,27244,1,0,0:0:0:0:
256,192,27587,1,0,0:0:0:0:
256,192,27759,1,8,0:0:0:0:
256,192,28102,1,0,0:0:0:0:
256,192,28273,1,0,0:0:0:0:
256,192,28445,1,8,0:0:0:0:
256,192,28616,1,8,0:0:0:0:
256,192,28788,1,0,0:0:0:0:
256,192,29130,1,8,0:0:0:0:
256,192,29473,1,8,0:0:0:0:
256,192,29645,1,0,0:0:0:0:
256,192,29816,1,0,0:0:0:0:
256,192,29987,1,8,0:0:0:0:
256,192,30330,1,0,0:0:0:0:
256,192,30502,1,8,0:0:0:0:
256,192,30673,1,8,0:0:0:0:
256,192,30845,1,0,0:0:0:0:
256,192,31016,1,0,0:0:0:0:
256,192,31187,1,8,0:0:0:0:
256,192,31359,1,0,0:0:0:0:
256,192,31530,1,8,0:0:0:0:
256,192,31873,1,8,0:0:0:0:
256,192,32216,1,8,0:0:0:0:
256,192,32387,1,0,0:0:0:0:
256,192,32559,1,8,0:0:0:0:
256,192,32730,1,0,0:0:0:0:
256,192,32902,1,8,0:0:0:0:
256,192,33245,1,8,0:0:0:0:
256,192,33416,1,0,0:0:0:0:
256,192,33501,1,0,0:0:0:0:
256,192,33588,1,8,0:0:0:0:
256,192,33759,1,8,0:0:0:0:
256,192,33931,1,0,0:0:0:0:
256,192,34102,1,8,0:0:0:0:
256,192,34274,1,8,0:0:0:0:
256,192,34616,1,8,0:0:0:0:
256,192,34959,1,0,0:0:0:0:
256,192,35131,1,0,0:0:0:0:
256,192,35302,1,8,0:0:0:0:
256,192,35473,1,0,0:0:0:0:
256,192,35645,1,8,0:0:0:0:
256,192,35988,1,0,0:0:0:0:
256,192,36159,1,8,0:0:0:0:
256,192,36501,1,8,0:0:0:0:
256,192,36845,1,0,0:0:0:0:
256,192,37016,1,8,0:0:0:0:
256,192,37359,1,8,0:0:0:0:
256,192,37702,1,8,0:0:0:0:
256,192,37873,1,0,0:0:0:0:
256,192,38045,1,8,0:0:0:0:
256,192,38216,1,8,0:0:0:0:
256,192,38387,1,0,0:0:0:0:
256,192,38730,1,8,0:0:0:0:
256,192,38901,1,8,0:0:0:0:
256,192,39074,1,0,0:0:0:0:
256,192,39245,1,8,0:0:0:0:
256,192,39417,1,0,0:0:0:0:
256,192,39588,1,0,0:0:0:0:
256,192,39760,1,8,0:0:0:0:
256,192,40101,1,8,0:0:0:0:
256,192,40444,1,8,0:0:0:0:
256,192,40616,1,0,0:0:0:0:
256,192,40787,1,0,0:0:0:0:
256,192,40959,1,8,0:0:0:0:
256,192,41301,1,0,0:0:0:0:
256,192,41473,1,8,0:0:0:0:
256,192,41644,1,8,0:0:0:0:
256,192,41816,1,0,0:0:0:0:
256,192,42158,1,8,0:0:0:0:
256,192,42501,1,0,0:0:0:0:
256,192,42844,1,8,0:0:0:0:
256,192,43016,1,0,0:0:0:0:
256,192,43358,1,0,0:0:0:0:
256,192,43530,1,8,0:0:0:0:
256,192,43873,1,8,0:0:0:0:
256,192,44044,1,0,0:0:0:0:
256,192,44216,1,0,0:0:0:0:
256,192,44387,1,8,0:0:0:0:
256,192,44559,1,0,0:0:0:0:
256,192,44730,1,0,0:0:0:0:
256,192,44902,1,8,0:0:0:0:
256,192,45073,1,8,0:0:0:0:
256,192,45245,1,4,0:0:0:0:
256,192,45587,1,8,0:0:0:0:
256,192,45930,1,0,0:0:0:0:
256,192,46273,1,0,0:0:0:0:
256,192,46444,1,8,0:0:0:0:
256,192,46616,1,0,0:0:0:0:
256,192,46958,1,0,0:0:0:0:
256,192,47301,1,0,0:0:0:0:
256,192,47644,1,8,0:0:0:0:
256,192,47987,1,0,0:0:0:0:
256,192,48329,1,8,0:0:0:0:
256,192,48672,1,0,0:0:0:0:
256,192,48844,1,0,0:0:0:0:
256,192,49015,1,8,0:0:0:0:
256,192,49358,1,0,0:0:0:0:
256,192,49700,1,8,0:0:0:0:
256,192,50043,1,0,0:0:0:0:
256,192,50216,1,0,0:0:0:0:
256,192,50387,1,8,0:0:0:0:
256,192,50559,1,0,0:0:0:0:
256,192,50730,1,8,0:0:0:0:
256,192,51072,1,0,0:0:0:0:
256,192,51416,1,8,0:0:0:0:
256,192,51759,1,0,0:0:0:0:
256,192,51930,1,0,0:0:0:0:
256,192,52101,1,8,0:0:0:0:
256,192,52443,1,0,0:0:0:0:
256,192,52786,1,8,0:0:0:0:
256,192,53129,1,0,0:0:0:0:
256,192,53301,1,8,0:0:0:0:
256,192,53472,1,0,0:0:0:0:
256,192,53816,1,0,0:0:0:0:
256,192,54159,1,8,0:0:0:0:
256,192,54500,1,0,0:0:0:0:
256,192,54673,1,0,0:0:0:0:
256,192,54843,1,8,0:0:0:0:
256,192,55016,1,8,0:0:0:0:
256,192,55187,1,0,0:0:0:0:
256,192,55530,1,8,0:0:0:0:
256,192,55701,1,0,0:0:0:0:
256,192,55873,1,8,0:0:0:0:
256,192,56044,1,8,0:0:0:0:
256,192,56216,1,4,0:0:0:0:
256,192,56558,1,0,0:0:0:0:
256,192,56901,1,8,0:0:0:0:
256,192,57244,1,0,0:0:0:0:
256,192,57416,1,8,0:0:0:0:
256,192,57587,1,0,0:0:0:0:
256,192,57929,1,0,0:0:0:0:
256,192,58272,1,8,0:0:0:0:
256,192,58615,1,8,0:0:0:0:
256,192,58958,1,0,0:0:0:0:
256,192,59301,1,8,0:0:0:0:
256,192,59473,1,0,0:0:0:0:
256,192,59816,1,0,0:0:0:0:
256,192,59987,1,8,0:0:0:0:
256,192,60159,1,8,0:0:0:0:
256,192,60329,1,0,0:0:0:0:
256,192,60501,1,0,0:0:0:0:
256,192,60673,1,8,0:0:0:0:
256,192,61016,1,0,0:0:0:0:
256,192,61359,1,8,0:0:0:0:
256,192,61701,1,4,0:0:0:0:
256,192,62044,1,8,0:0:0:0:
256,192,62216,1,0,0:0:0:0:
256,192,62301,1,0,0:0:0:0:
256,192,62387,1,0,0:0:0:0:
256,192,62559,1,0,0:0:0:0:
256,192,62730,1,8,0:0:0:0:
256,192,62901,1,8,0:0:0:0:
256,192,63073,1,4,0:0:0:0:
256,192,63416,1,8,0:0:0:0:
256,192,63587,1,8,0:0:0:0:
256,192,63673,1,8,0:0:0:0:
256,192,63759,1,0,0:0:0:0:
256,192,63930,1,0,0:0:0:0:
256,192,64101,1,8,0:0:0:0:
256,192,64273,1,0,0:0:0:0:
256,192,64444,1,4,0:0:0:0:
256,192,64787,2,4,B|324:271|477:215|452:42|324:14|262:74,1,420,,,0:0:0:0:
256,192,66501,1,0,0:0:0:0:
256,192,66673,1,0,0:0:0:0:
256,192,66844,1,8,0:0:0:0:
256,192,67016,1,8,0:0:0:0:
256,192,67187,1,4,0:0:0:0:
256,192,67359,1,0,0:0:0:0:
256,192,67530,1,8,0:0:0:0:
256,192,67701,1,0,0:0:0:0:
256,192,67787,1,8,0:0:0:0:
256,192,67873,1,0,0:0:0:0:
256,192,68044,1,0,0:0:0:0:
256,192,68216,1,8,0:0:0:0:
256,192,68387,1,8,0:0:0:0:
256,192,68473,1,8,0:0:0:0:
256,192,68559,1,0,0:0:0:0:
256,192,68730,1,0,0:0:0:0:
256,192,68901,1,8,0:0:0:0:
256,192,69073,1,0,0:0:0:0:
256,192,69416,1,0,0:0:0:0:
256,192,69587,1,8,0:0:0:0:
256,192,69759,1,8,0:0:0:0:
256,192,69844,1,8,0:0:0:0:
256,192,69930,1,0,0:0:0:0:
256,192,70101,1,0,0:0:0:0:
256,192,70187,1,0,0:0:0:0:
256,192,70273,1,8,0:0:0:0:
256,192,70444,1,0,0:0:0:0:
256,192,70616,1,0,0:0:0:0:
256,192,70701,1,0,0:0:0:0:
256,192,70787,1,0,0:0:0:0:
256,192,70873,1,0,0:0:0:0:
256,192,70959,1,8,0:0:0:0:
256,192,71130,1,8,0:0:0:0:
256,192,71301,1,0,0:0:0:0:
256,192,71473,1,0,0:0:0:0:
256,192,71644,1,8,0:0:0:0:
256,192,71816,1,0,0:0:0:0:
256,192,72159,1,0,0:0:0:0:
256,192,72331,1,8,0:0:0:0:
256,192,72502,1,8,0:0:0:0:
256,192,72674,1,4,0:0:0:0:
256,192,73016,1,8,0:0:0:0:
256,192,73187,1,8,0:0:0:0:
256,192,73273,1,8,0:0:0:0:
256,192,73359,1,0,0:0:0:0:
256,192,73530,1,0,0:0:0:0:
256,192,73701,1,8,0:0:0:0:
256,192,73873,1,0,0:0:0:0:
256,192,73959,1,8,0:0:0:0:
256,192,74044,1,0,0:0:0:0:
256,192,74216,1,0,0:0:0:0:
256,192,74301,1,0,0:0:0:0:
256,192,74387,1,8,0:0:0:0:
256,192,74559,1,0,0:0:0:0:
256,192,74901,1,0,0:0:0:0:
256,192,75073,1,8,0:0:0:0:
256,192,75244,1,8,0:0:0:0:
256,192,75416,1,4,0:0:0:0:
256,192,75759,1,8,0:0:0:0:
256,192,75930,1,0,0:0:0:0:
256,192,76016,1,0,0:0:0:0:
256,192,76101,1,8,0:0:0:0:
256,192,76273,1,0,0:0:0:0:
256,192,76444,1,0,0:0:0:0:
256,192,76616,1,12,0:0:0:0:
256,192,76959,1,0,0:0:0:0:
256,192,77044,1,0,0:0:0:0:
256,192,77130,1,8,0:0:0:0:
256,192,77301,1,0,0:0:0:0:
256,192,77473,1,8,0:0:0:0:
256,192,77559,1,8,0:0:0:0:
256,192,77644,1,0,0:0:0:0:
256,192,77730,1,0,0:0:0:0:
256,192,77816,1,8,0:0:0:0:
256,192,77901,1,8,0:0:0:0:
256,192,77987,1,8,0:0:0:0:
256,192,78073,1,8,0:0:0:0:
256,192,78159,1,0,0:0:0:0:
256,192,78330,1,0,0:0:0:0:
256,192,78501,1,8,0:0:0:0:
256,192,78673,1,0,0:0:0:0:
256,192,78759,1,8,0:0:0:0:
256,192,78844,1,0,0:0:0:0:
256,192,79016,1,0,0:0:0:0:
256,192,79101,1,0,0:0:0:0:
256,192,79187,1,8,0:0:0:0:
256,192,79359,1,0,0:0:0:0:
256,192,79530,1,0,0:0:0:0:
256,192,79616,1,0,0:0:0:0:
256,192,79701,1,0,0:0:0:0:
256,192,79787,1,0,0:0:0:0:
256,192,79873,1,8,0:0:0:0:
256,192,80044,1,12,0:0:0:0:
256,192,80387,1,4,0:0:0:0:
256,192,80730,1,12,0:0:0:0:
256,192,81073,1,0,0:0:0:0:
256,192,81244,1,8,0:0:0:0:
256,192,81416,1,0,0:0:0:0:
256,192,81501,1,0,0:0:0:0:
256,192,81587,1,0,0:0:0:0:
256,192,81759,1,0,0:0:0:0:
256,192,81844,1,0,0:0:0:0:
256,192,81930,1,8,0:0:0:0:
256,192,82101,1,0,0:0:0:0:
256,192,82273,1,8,0:0:0:0:
256,192,82444,1,0,0:0:0:0:
256,192,82530,1,0,0:0:0:0:
256,192,82616,1,0,0:0:0:0:
256,192,82787,1,8,0:0:0:0:
256,192,83130,1,0,0:0:0:0:
256,192,83301,1,8,0:0:0:0:
256,192,83473,1,8,0:0:0:0:
256,192,83644,1,4,0:0:0:0:
256,192,83816,1,0,0:0:0:0:
256,192,83987,1,8,0:0:0:0:
256,192,84330,1,0,0:0:0:0:
256,200,84501,1,0,0:0:0:0:
256,192,84587,1,0,0:0:0:0:
256,192,84673,1,8,0:0:0:0:
256,192,84844,1,8,0:0:0:0:
256,192,85016,1,4,0:0:0:0:
256,192,85187,1,0,0:0:0:0:
256,192,85359,1,8,0:0:0:0:
256,192,85530,1,0,0:0:0:0:
256,192,85873,1,0,0:0:0:0:
256,192,86044,1,8,0:0:0:0:
256,192,86216,1,8,0:0:0:0:
256,192,86301,1,8,0:0:0:0:
256,192,86387,1,0,0:0:0:0:
256,192,86559,1,0,0:0:0:0:
256,192,86730,1,8,0:0:0:0:
256,192,86901,1,0,0:0:0:0:
256,192,87073,1,8,0:0:0:0:
256,192,87159,1,8,0:0:0:0:
256,192,87244,1,8,0:0:0:0:
256,192,87330,1,8,0:0:0:0:
256,192,87416,1,0,0:0:0:0:
256,192,87501,1,0,0:0:0:0:
256,192,87587,1,0,0:0:0:0:
256,192,87673,1,0,0:0:0:0:
256,192,87759,1,8,0:0:0:0:
256,192,88444,1,8,0:0:0:0:
256,192,89130,1,8,0:0:0:0:
